Skip to main content

New Mastersounds Live at Langerado Festival on 2008-03-07




New Mastersounds
March 7, 2008
Chickee Hut - Langerado Festival
Big Cypress Seminole Indian Reservation, Florida

*** THIS IS A 16-BIT FILESET INTENDED FOR AUDIO CD ***

SOURCE: mbho 603a/ka500hn (hyper, DINa) > sound devices mp2 > busman t-mod edirol r4 (24/96)
PROCESSING: soundforge 10.0 (tracking, fades, resample, dither) > flac 1.2.1b

01
02
03
04
05
06
07
08
09
10
11
12


Collection NewMastersounds
Band/Artist New Mastersounds
Venue Langerado Festival
Location Big Cypress Seminole Indian Reservation Ochopee, Florida

Source mbho 603a/ka500hn (hyper, DINa) > sound devices mp2 > busman t-mod edirol r4 (24/96)
Lineage soundforge 10.0 (tracking, fades, resample, dither) > flac 1.2.1b
Taped by Peter W. King
Transferred by Peter W. King

Notes

length expanded size cdr WAVE problems fmt ratio filename
0:39.30 6950204 B --- -- ---xx flac 0.2871 newmastersounds2008-03-07_mbho_t01.flac
3:23.34 35889212 B --- -- ---xx flac 0.4631 newmastersounds2008-03-07_mbho_t02.flac
5:17.09 55940012 B --- -- ---xx flac 0.4592 newmastersounds2008-03-07_mbho_t03.flac
5:25.30 57400604 B --- -- ---xx flac 0.4434 newmastersounds2008-03-07_mbho_t04.flac
5:46.11 61060316 B --- -- ---xx flac 0.4681 newmastersounds2008-03-07_mbho_t05.flac
5:00.43 53021180 B --- -- ---xx flac 0.4326 newmastersounds2008-03-07_mbho_t06.flac
5:01.33 53174060 B --- -- ---xx flac 0.4202 newmastersounds2008-03-07_mbho_t07.flac
2:37.04 27704252 B --- -- ---xx flac 0.4591 newmastersounds2008-03-07_mbho_t08.flac
7:09.57 75809708 B --- -- ---xx flac 0.4228 newmastersounds2008-03-07_mbho_t09.flac
8:23.48 88842140 B --- -- ---xx flac 0.4340 newmastersounds2008-03-07_mbho_t10.flac
6:21.62 67354268 B --- -- ---xx flac 0.4658 newmastersounds2008-03-07_mbho_t11.flac
6:00.47 63614588 B --- -- ---xx flac 0.4161 newmastersounds2008-03-07_mbho_t12.flac
61:06.33 646760544 B 0.4403 (12 files)

Reviews

There are no reviews yet. Be the first one to write a review.
DOWNLOAD OPTIONS
Uploaded by
peterwking
on 7/8/2013
Views
59
Favorites
1
PEOPLE ALSO FOUND
New Mastersounds
by New Mastersounds
55
0
0
Source: mbho 603a/ka500hn (hyper, DINa) > sound devices mp2 > busman t-mod edirol r4 (24/96)
New Mastersounds
by New Mastersounds
59
1
0
Source: mbho 603a/ka500hn (hyper, DINa) > sound devices mp2 > busman t-mod edirol r4 (24/96)
Benevento/Russo
by Benevento/Russo
298
2
0
Source: mbho 603a/ka300nb (subcard, NOS) > sound devices mp-2 > busman t-mod edirol r4 (24/96)
North Mississippi Allstars
by North Mississippi Allstars
319
1
0
Source: mbho 603a/ka500hn (hyper, DINa) > sound devices mp2 > busman t-mod edirol r4 (24/96)
Lotus
by Lotus
1,077
1
0
Source: schoeps mk4v (ORTF) > vms02ib > busman t-mod edirol r4 (24/96)
Hot Buttered Rum
by Hot Buttered Rum
925
1
1
( 1 reviews )
Source: mbho 603a/ka200n (card, ORTF) > mp2 > busman t-mod edirol r4 (24/96)
Gomez
by Gomez
168
0
0
Source: mbho 603a/ka500hn (hypercardioid, DINa) > sound devices mp2 > busman t-mod edirol r4 (24/96)
Camper Van Beethoven
by Camper Van Beethoven
103
0
0
Source: DSBD > busman t-mod edirol r4 (24/96)
North Mississippi Allstars
by North Mississippi Allstars
515
1
0
Source: mbho 603a/ka500hn (hyper, DINa) > sound devices mp2 > edirol r09 (24/48)
Ryan Montbleau
by Ryan Montbleau
34
0
0
Source: Neumann U89i (subcard, NOS, -80h)> Lunatec V2> Apogee Minime> Tascam HD-P2 (16/44.1)